Details for this torrent 

DragonForce - Cry Thunder (2012)
Type:
Video > Music videos
Files:
1
Size:
146.97 MiB (154111837 Bytes)
Tag(s):
DragonForce Cry Thunder 2012
Uploaded:
2013-07-16 10:26:32 GMT
By:
theSEMAR
Seeders:
0
Leechers:
1
Comments
1  

Info Hash:
51565F8E30C033E86CC072238A86F362B824ABA2




(Problems with magnets links are fixed by upgrading your torrent client!)
General
Format                         : MPEG-4
Format profile                 : Base Media / Version 2
Codec ID                       : mp42
File size                      : 147 MiB
Duration                       : 5mn 19s
Overall bit rate mode          : Variable
Overall bit rate               : 3 857 Kbps

Video
ID                             : 1
Format                         : AVC
Format/Info                    : Advanced Video Codec
Format profile                 : [email protected]
Format settings, CABAC         : Yes
Format settings, ReFrames      : 1 frame
Codec ID                       : avc1
Codec ID/Info                  : Advanced Video Coding
Duration                       : 5mn 19s
Bit rate                       : 3 662 Kbps
Maximum bit rate               : 5 804 Kbps
Width                          : 1 920 pixels
Height                         : 1 080 pixels
Display aspect ratio           : 16:9
Frame rate mode                : Constant
Frame rate                     : 25.000 fps
Color space                    : YUV
Chroma subsampling             : 4:2:0
Bit depth                      : 8 bits
Scan type                      : Progressive
Bits/(Pixel*Frame)             : 0.071
Stream size                    : 140 MiB (95%)

Audio
ID                             : 2
Format                         : AAC
Format/Info                    : Advanced Audio Codec
Format profile                 : LC
Codec ID                       : 40
Duration                       : 5mn 19s
Bit rate mode                  : Variable
Bit rate                       : 192 Kbps
Maximum bit rate               : 201 Kbps
Channel(s)                     : 2 channels
Channel positions              : Front: L R
Sampling rate                  : 44.1 KHz
Compression mode               : Lossy
Stream size                    : 7.32 MiB (5%)

Comments

Thanks!